La protection des contenus 4K de Netflix cassée ?

Le par  |  8 commentaire(s)
pirate

Le DRM Widevine de plus haut niveau cassé pour Netflix ? Des copies pirates en 4K de Stranger Things 3 posent la question.

Stranger Things est l'une des séries événements de Netflix. Le service américain de SVOD a débuté la diffusion de la troisième saison le 4 juillet et annonce un record. En l'espace de quatre jours, 40,7 millions de comptes Netflix ont regardé cette saison 3 et 18,2 millions ont déjà terminé la consultation de la saison dans son intégralité.

À peine quelques heures après la disponibilité de Stranger Things 3 sur Netflix, TorrentFreak a constaté l'apparition sur divers sites pirates de copies de l'ensemble des épisodes de la dernière saison, dont avec un étiquetage " INTERNAL 2160p WEB H265-DEFLATE. "

DEFLATE est un groupe de la scène internationale du warez avec pour spécialité les séries en WEBRip et WEB-DL. TorrentFreak tique donc sur la mention WEB et non WEB-DL ou WEBRip comme à l'accoutumée. Dans le warez aussi, il y a le respect d'une nomenclature.

Cela suppose que les copies pirates ont été directement déchiffrées depuis des fichiers originaux en version 4K, sans perte de qualité. Autrement dit, cela suggère que la protection des contenus 4K de Netflix a été contournée.

Stranger-Things-Netflix

La situation paraît différente de cas antérieurs avec le ripping de vidéos 4K de Netflix. " Bien que rien ne confirme que les clés ont été cassées, une multitude de nouvelles fuites 4K de Netflix suggère qu'il existe au moins un type de vulnérabilité permettant à des personnes extérieures de décrypter les flux originaux ", écrit TorrentFreak.

En début d'année, le groupe DEFLATE avait aussi fait parler de lui avec la fuite en ligne des films de la collection James Bond en 4K d'iTunes.

Complément d'information

Vos commentaires

Gagnez chaque mois un abonnement Premium avec GNT : Inscrivez-vous !
Trier par : date / pertinence
Le #2071041
en effet !

Qualité : WEBRIP
Format : MKV
Langue : en_US.png Anglais
Sous-titre : fr_FR.png True French
Codec vidéo : x265 à 15 Mo/s
Codec audio : en_US.png Dolby Digital Plus (EAC3) à 640kbps
Le #2071042
Ce que l'homme fait l'homme défait
Le #2071045
skynet a écrit :

en effet !

Qualité : WEBRIP
Format : MKV
Langue : en_US.png Anglais
Sous-titre : fr_FR.png True French
Codec vidéo : x265 à 15 Mo/s
Codec audio : en_US.png Dolby Digital Plus (EAC3) à 640kbps


Bin non justement, c'est pas du "WEBRIP"...
Le #2071048
CodeKiller a écrit :

skynet a écrit :

en effet !

Qualité : WEBRIP
Format : MKV
Langue : en_US.png Anglais
Sous-titre : fr_FR.png True French
Codec vidéo : x265 à 15 Mo/s
Codec audio : en_US.png Dolby Digital Plus (EAC3) à 640kbps


Bin non justement, c'est pas du "WEBRIP"...


J'ai sorti le tag d'un fichier qui tourne le plus en ce moment ....

J'ai aussi trouvé l’autre dont on parle :

Qualite : WEB-DL 4K (Netflix)
Format : MKV
Source release : DEFLATE (Netflix)
Source audio FR : ARK01 (Netflix)
Remux/Edition : SQUEEZE
~
Langue(s) : fr_FR.png French, en_US.png Anglais
Sous-titres : fr_FR.png French (Forced), fr_FR.png French, en_US.png Anglais (Forced), en_US.png Anglais
~
Arabic, Chinese, Czech, Danish, Dutch, Finnish, German
Greek, Hebrew, Hungarian, Indonesian, Italian, Japanese
Korean, Norwegian, Polish, Portuguese, Romanian
Russian, Spanish, Swedish, Thai, Turkish, Viestnamese
~
Codec vidéo : HEVC/H265 10 bits à ~15 Mbps
Codec audio : fr_FR.png Dolby Digital Plus 5.1 (A_EAC3) à 640 kbps
Codec audio : en_US.png Dolby Digital Plus 5.1 (A_EAC3) à 640 kbps
Le #2071050
Video
ID : 1
Format : HEVC
Format/Info : High Efficiency Video Coding
Format profile : Main 10@L5@Main
Codec ID : V_MPEGH/ISO/HEVC
Duration : 1 h 17 min
Bit rate : 15.2 Mb/s
Width : 3 840 pixels
Height : 1 920 pixels
Original height : 2 160 pixels
Display aspect ratio : 16:9
Frame rate mode : Constant
Frame rate : 23.976 (24000/1001) FPS
Color space : YUV
Chroma subsampling : 4:2:0
Bit depth : 10 bits
Bits/(Pixel*Frame) : 0.086
Stream size : 8.27 GiB (94%)
Language : English
Default : Yes
Forced : No
Color range : Limited
Color primaries : BT.709
Transfer characteristics : BT.709
Matrix coefficients : BT.709

Audio
ID : 2
Format : E-AC-3
Format/Info : Enhanced AC-3
Commercial name : Dolby Digital Plus
Codec ID : A_EAC3
Duration : 1 h 17 min
Bit rate mode : Constant
Bit rate : 640 kb/s
Channel(s) : 6 channels
Channel layout : L R C LFE Ls Rs
Sampling rate : 48.0 kHz
Frame rate : 31.250 FPS (1536 SPF)
Compression mode : Lossy
Stream size : 355 MiB (4%)
Language : English
Service kind : Complete Main
Default : Yes
Forced : No
Le #2071057
CodeKiller a écrit :

skynet a écrit :

en effet !

Qualité : WEBRIP
Format : MKV
Langue : en_US.png Anglais
Sous-titre : fr_FR.png True French
Codec vidéo : x265 à 15 Mo/s
Codec audio : en_US.png Dolby Digital Plus (EAC3) à 640kbps


Bin non justement, c'est pas du "WEBRIP"...


Désolé pour le pouce rouge mauvaise manip
Le #2071060
Il manque encore la bande son en Atmos et ça sera parfait
Le #2071077
Nerthazrim a écrit :

Il manque encore la bande son en Atmos et ça sera parfait


Je vois que monsieur est gourmand en plus
Suivre les commentaires
Poster un commentaire
Anonyme
Anonyme